Groove3 – Cubase Operator [ENG]

By | January 10, 2017

BECOME A SERIOUS CUBASE OPERATOR
Presented by producer extraordinaire and Cubase power user Phil Campagna (aka groovepusher), this collection of Cubase videos will reveal the tips and techniques you’ll use everyday, when using Cubase as your main music making machine.
Rediscover the important basics, such as the pool and export options window, to more advance topics such as proper gain structure, side-chain compression, automation, external effects and more. Phil gives you a look behind his Cubase curtain and shows you his way of doing things, making you into a serious Cubase operator.

Product Hightlights
25 Tutorials / 2 Hours Total Runtime
For all intermediate to advanced Cubase users
Written by producer extrodinaire Phil Campangna (aka groovepusher)
Simple to use video control interface for Mac & PC
Available Options: Watch Online, Download, Stream to iPad, iPhone & iPod

Content
Arranger Track
Automation Modes
VST Automation
Proper Gain Structure
Customizing Cubase
Delay Side Chain
Export Audio Mixdown
External Effects
Find Pitch with Melodyne
In Place MIDI Editor
Vocal Insert FX
Internal Summing
Key Commands
MediaBay
MIDI Loops
Offline History
Plug-In Management
The Pool
Quick Controls
The Sample Editor
Side-Chain Compression
Steal a Groove
Track Lanes
Real-Time Transpose
Vocal FX Templates
MediaInfo
Video
ID: 2
Format: AVC
Format / Info: Advanced Video Codec
Format profile: Main@L4.2
Format settings, CABAC: No
Format settings, ReFrames: 2 frames
Codec ID: avc1
Codec ID / Info: Advanced Video Coding
Duration: 6mn 6s
Bit rate mode: Variable
Bit rate: 486 Kbps
Width: 1024 pixels
Height: 768 pixels
Display aspect ratio: 4: 3
Frame rate mode: Constant
Frame rate: 24.000 fps
Color space: YUV
Chroma subsampling: 4: 2: 0
Bit depth: 8 bits
Scan type: Progressive
Bits / (Pixel * Frame): 0.026
Stream size: 21.2 MiB (80%)
Language: English
Encoded date: UTC 2011-11-10 16:26:19
Tagged date: UTC 2011-11-10 16:32:48
Color primaries: BT.709-5, BT.1361, IEC 61966-2-4, SMPTE RP177
Transfer characteristics: BT.709-5, BT.1361
Matrix coefficients: BT.709-5, BT.1361, IEC 61966-2-4 709, SMPTE RP177
Audio
ID: 1
Format: AAC
Format / Info: Advanced Audio Codec
Format profile: LC
Codec ID: 40
Duration: 6mn 5s
Bit rate mode: Constant
Bit rate: 117 Kbps
Nominal bit rate: 128 Kbps
Channel (s): 2 channels
Channel positions: Front: LR
Sampling rate: 44.1 KHz
Compression mode: Lossy
Stream size: 5.09 MiB (19%)
Language: English
Encoded date: UTC 2011-11-10 16:26:19
Tagged date: UTC 2011-11-10 16:32:48
Sample Files: not provided
Video Format: MOV



Sponsored Links

Sponsored Links
Loading Facebook Comments ...

Leave a Reply

Your email address will not be published. Required fields are marked *